1. tinhtevn

    tinhtevn Thành viên KSV

    [Thuyết Minh] The Beast 2019 ViE 1080p HDRip H264 AAC 2.0 - Quái Vật

    The Beast 2019
    Quái Vật

    [​IMG]

    Nội Dung Phim
    Quái Vật 2019 thuộc thể tội phạm hình sự, với sự tham gia của dàn diễn viên tương đối chất lượng gồm một số cái tên đáng chú ý như: Lee Sung Min, Yoo Jae Myung, Jeon Hye Jin, Daniel Choi, Kim Ho Jung, An Si Ha,…Trong đó, đáng chú ý nhất chắc chắn là ngôi sao kỳ cựu Jae Myung, không chỉ giàu kinh nghiệm, sở hữu khả năng diễn xuất tốt mà ông còn được đánh giá cực cao trong dòng phim hình sự. Nội dung phim kể về hành trình điều tra vụ án vô cùng nghiêm trong liên quan đến một nữ sinh trung học của cảnh sát Han Soo.Nạn nhân là Yoo Min Jin, 17 tuổi, mất tích 17 ngày sau khi phát hiện thấy thi thể bị vùi trong một vũng bùn lớn và bị cắt từng phần cơ thể. Chính vì cách ra tay nguy hiểm mà Han Soo phải ngay lập tức tìm kiếm hung thủ bằng mọi cách, anh chấp nhận che giấu một tên tội phạm giết người khác để tìm kiếm manh mối. Tuy nhiên, đồng nghiệp Min Tae phát hiện được điều này và bắt đầu theo dõi Han Soo, mọi chuyện rồi sẽ ra sao giữa cuộc đấu trí của 2 cảnh sát và 1 tên tội phạm nguy hiểm.


    Video Clip này được chèn từ YouTube. Bạn có thể xem trên các trình duyệt có hỗ trợ HTML5.


    [​IMG]
    [​IMG]
    [​IMG]
    [​IMG]


    1
    Format : AVC
    Format/Info : Advanced Video Codec
    Format profile : High@L4
    Format settings : CABAC / 4 Ref Frames
    Format settings, CABAC : Yes
    Format settings, Reference frames : 4 frames
    Format settings, GOP : M=4, N=23
    Codec ID : V_MPEG4/ISO/AVC
    Duration : 2 h 11 min
    Bit rate : 5 120 kb/s
    Width : 1 920 pixels
    Height : 1 080 pixels
    Display aspect ratio : 16:9
    Frame rate mode : Constant
    Frame rate : 23.976 (24000/1001) FPS
    Color space : YUV
    2
    Format : AAC LC
    Format/Info : Advanced Audio Codec Low Complexity
    Codec ID : A_AAC-2
    Duration : 2 h 11 min
    Bit rate : 320 kb/s
    Channel(s) : 2 channels
    Channel layout : L R
    Sampling rate : 48.0 kHz
    Frame rate : 46.875 FPS (1024 SPF)
    Compression mode : Lossy
    Delay relative to video : -83 ms
    Stream size : 300 MiB (6%)
    Language : Korean
    Default : No
    Forced : No

    Audio #2
    ID : 3
    Format : AAC LC
    Format/Info : Advanced Audio Codec Low Complexity
    Codec ID : A_AAC-2
    Duration : 2 h 11 min
    Bit rate : 128 kb/s
    Channel(s) : 2 channels
    Channel layout : L R
    Sampling rate : 48.0 kHz
    Frame rate : 46.875 FPS (1024 SPF)
    Compression mode : Lossy
    Delay relative to video : -83 ms
    Stream size : 120 MiB (2%)
    Language : Vietnamese
    Default : Yes
    Forced : Yes


     




Đang tải...

Chia sẻ cùng bạn bè

Đang tải...
TOP