The pink panther 1, 2

Trong chuyên mục 'Bản tin sinh viên' đăng bởi aizi, 15/6/2010. — 1.716 Lượt xem

  1. aizi

    aizi Thành viên thân thiết Thành viên thân thiết

    The pink panther 1, 2

    Film này thì nội dung hok có gì sâu sắc lắm, nhưng đảm bảo với anh em xem phim là cười phải hở 10 cái răng nhé. Rất phù hợp với gia đình vào dịp cuối tuần.


    The Pink Panther 1
    [​IMG]
    [​IMG]
    [​IMG]

    Link giới thiệu (có spoile nội dung): http://phimanh.vnexpress.net/News/Hai/2006/06/3B9AD405/

    Link load: http://mega.1280.com/folder/LX7ZTN/ (dung lượng 4.4GB, 23 parts)



    The Pink Panther 2 [​IMG]

    Movie Information:
    Code:
    Director: Harald Zwart
    Writers: Scott Neustadter (screenplay) & Michael H. Weber (screenplay)
    Release Date: 6 February 2009 (USA)
    Genre: Adventure | Comedy | Mystery.IMDB
    Link: http://www.imdb.com/title/tt0838232/
    IMDB Rate: 5.0/10 (06/13/2009)

    Media Information:
    Code:
    General
    Format : Matroska
    File size : 4.38 GiB
    Duration : 1h 32mn
    Overall bit rate : 6 807 Kbps
    Video
    ID : 1
    Format : AVC
    Format/Info : Advanced Video Codec
    Format profile : High@L4.1
    Format settings, CABAC : Yes
    Format settings, ReFrames : 5 frames
    Muxing mode : Container profile=Unknown@4.1
    Codec ID : V_MPEG4/ISO/AVC
    Duration : 1h 31mn
    Bit rate : 6 031 Kbps
    Nominal bit rate : 6 165 Kbps
    Width : 1 280 pixels
    Height : 688 pixels
    Display aspect ratio : 1.860
    Frame rate : 23.976 fps
    Resolution : 24 bits
    Colorimetry : 4:2:0
    Scan type : Progressive
    Bits/(Pixel*Frame) : 0.286
    Stream size : 3.87 GiB (89%)
    Writing library : x264 core 67 r1163 3f56e27
    Language : English
    AudioID : 2
    Format : AC-3
    Format/Info : Audio Coding 3
    Codec ID : A_AC3
    Duration : 1h 32mn
    Bit rate mode : Constant
    Bit rate : 640 Kbps
    Channel(s) : 6 channels
    Channel positions : Front: L C R, Surround: L R, LFE
    Sampling rate : 48.0 KHz
    Stream size : 421 MiB (9%)

    Mega.1280 Link: (23 Links+1 VNSub Link)
    Code:
    http://mega.1280.com/folder/6XEBY0/

    Film này mấy bữa trước có chiếu trên HBO vs Starmovies đó. Thấy hay nên em giới thiệu với mọi người. :KSV@20:
     



Chia sẻ cùng bạn bè


Đang tải...