[MV HD] Buono! - Take It Easy! (Dance Shot Ver.)- Mediafire

Thảo luận trong 'Bài hát hay' bắt đầu bởi conlocxanh, 3/3/2011. — 1.470 Lượt xem

  1. conlocxanh

    conlocxanh Thành viên thân thiết Thành viên thân thiết

    [MV HD] Buono! - Take It Easy! (Dance Shot Ver.)- Mediafire

    [MV HD] Buono! - Take It Easy! (Dance Shot Ver.)- Mediafire

    [​IMG]

    [​IMG]

    Mã:
    Format : MPEG-4
    Format profile : Base Media / Version 2
    Codec ID : mp42
    File size : 67.4 MiB
    Duration : 4mn 24s
    Overall bit rate : 2 139 Kbps
    Encoded date : UTC 2009-09-02 14:38:34
    Tagged date : UTC 2009-09-02 14:38:34
    gsst : 0
    gstd : 264938
    gssd : B4A7DD128HH1298607322040744
    gshh : v8.cache2.c.youtube.com
    
    Video
    ID : 2
    Format : AVC
    Format/Info : Advanced Video Codec
    Format profile : High@L3.1
    Format settings, CABAC : Yes
    Format settings, ReFrames : 3 frames
    Format settings, GOP : M=1, N=24
    Codec ID : avc1
    Codec ID/Info : Advanced Video Coding
    Duration : 4mn 24s
    Bit rate mode : Variable
    Bit rate : 1 997 Kbps
    Maximum bit rate : 5 239 Kbps
    Width : 1 280 pixels
    Height : 720 pixels
    Display aspect ratio : 16:9
    Frame rate mode : Constant
    Frame rate : 23.976 fps
    Color space : YUV
    Chroma subsampling : 4:2:0
    Bit depth : 8 bits
    Scan type : Progressive
    Bits/(Pixel*Frame) : 0.090
    Stream size : 63.0 MiB (93%)
    Title : (C) 2007 Google Inc. v08.13.2007.
    Encoded date : UTC 2009-09-02 14:38:34
    Tagged date : UTC 2009-09-02 14:38:36
    
    Audio
    ID : 1
    Format : AAC
    Format/Info : Advanced Audio Codec
    Format profile : LC
    Codec ID : 40
    Duration : 4mn 24s
    Bit rate mode : Variable
    Bit rate : 139 Kbps
    Maximum bit rate : 312 Kbps
    Channel(s) : 2 channels
    Channel positions : Front: L R
    Sampling rate : 44.1 KHz
    Compression mode : Lossy
    Stream size : 4.40 MiB (7%)
    Title : (C) 2007 Google Inc. v08.13.2007.
    Encoded date : UTC 2009-09-02 14:38:34
    Tagged date : UTC 2009-09-02 14:38:36
    [​IMG]
    Download Mediafire :
    Mã:
    [url]http://adf.ly/eQoH[/url]
    Hướng dẫn : nhấn vào link trên, đợi 5s, rồi nhấn vào SKIP AD [​IMG] ở góc trên bến phải.
     





Chia sẻ cùng bạn bè


Đang tải...